<?xml version="1.0" standalone="no"?>
<!DOCTYPE svg PUBLIC "-//W3C//DTD SVG 1.1//EN" "http://www.w3.org/Graphics/SVG/1.1/DTD/svg11.dtd" >
<svg xmlns="http://www.w3.org/2000/svg">
<metadata>Generated by IcoMoon</metadata>
<defs>
<font id="icomoon" horiz-adv-x="1024">
<font-face units-per-em="1024" ascent="960" descent="-64" />
<missing-glyph horiz-adv-x="1024" />
<glyph unicode="&#x20;" horiz-adv-x="512" d="" />
<glyph unicode="&#xe900;" glyph-name="Important" d="M512 787.2c-185.6 0-339.2-153.6-339.2-339.2s153.6-339.2 339.2-339.2c185.6 0 339.2 153.6 339.2 339.2s-153.6 339.2-339.2 339.2zM473.6 633.6h76.8v-243.2h-76.8v243.2zM512 262.4c-19.2 0-38.4 19.2-38.4 38.4s19.2 38.4 38.4 38.4c19.2 0 38.4-19.2 38.4-38.4s-19.2-38.4-38.4-38.4z" />
<glyph unicode="&#xe901;" glyph-name="arrowdown" horiz-adv-x="1105" d="M1049.6 665.6l-64 64-435.2-439.467-439.467 439.467-64-64 503.467-499.2z" />
<glyph unicode="&#xe902;" glyph-name="arrowright" horiz-adv-x="1105" d="M456.533-51.2l-59.733 59.733 439.467 439.467-439.467 439.467 59.733 59.733 499.2-499.2z" />
<glyph unicode="&#xe903;" glyph-name="back" horiz-adv-x="1105" d="M405.333 810.667l59.733-59.733-260.267-260.267h866.133v-85.333h-866.133l260.267-260.267-59.733-59.733-362.667 362.667z" />
<glyph unicode="&#xe904;" glyph-name="clearall" horiz-adv-x="724" d="M361.97 810.031c-199.108 0-361.97-162.862-361.97-361.97s162.862-361.97 361.97-361.97 361.97 162.862 361.97 361.97-162.862 361.97-361.97 361.97zM533.954 318.282l-42.205-42.205-129.779 129.657-129.657-129.657-42.205 42.205 129.779 129.779-129.779 129.657 42.205 42.205 129.779-129.779 129.779 129.779 42.205-42.205-129.779-129.657 129.657-129.779z" />
<glyph unicode="&#xe905;" glyph-name="close" horiz-adv-x="1105" d="M968.533 802.133l-59.733 59.733-354.133-354.133-354.133 354.133-59.733-59.733 354.133-354.133-354.133-354.133 59.733-59.733 354.133 354.133 354.133-354.133 59.733 59.733-354.133 354.133z" />
<glyph unicode="&#xe906;" glyph-name="collapse" d="M384 640l-268.8 249.6-44.8-51.2 275.2-262.4h-281.6v-64h384v384h-64zM640 896h-64v-384h384v64h-281.6l281.6 262.4-51.2 51.2-268.8-249.6zM384 0h64v384h-384v-64h281.6l-275.2-262.4 44.8-51.2 268.8 249.6zM640 256l268.8-249.6 44.8 51.2-275.2 262.4h281.6v64h-384v-384h64z" />
<glyph unicode="&#xe907;" glyph-name="connect" horiz-adv-x="724" d="M587.593 383.84c-51.571 0-95.358-33.57-110.805-80.032l-243.259 107.885c2.676 9.73 4.014 19.947 4.014 30.529 0 10.46-1.46 20.555-3.892 30.286l253.841 114.089c20.434-34.056 57.652-56.923 100.101-56.923 64.342 0 116.643 52.301 116.643 116.643s-52.301 116.643-116.643 116.643-116.764-52.179-116.764-116.643c0-1.095 0-2.189 0-3.284l-266.247-119.684c-21.285 21.893-50.963 35.516-83.681 35.516-64.342 0-116.643-52.301-116.643-116.643s52.301-116.643 116.643-116.643c32.718 0 62.274 13.501 83.56 35.273l269.288-119.44c11.798-51.814 58.261-90.736 113.724-90.736 64.342 0 116.643 52.301 116.643 116.643 0.122 64.099-52.179 116.521-116.521 116.521zM587.593 704.578c32.11 0 58.261-26.15 58.261-58.261s-26.15-58.261-58.261-58.261c-32.11 0-58.261 26.15-58.261 58.261-0.122 31.989 26.029 58.261 58.261 58.261zM121.021 383.84c-32.11 0-58.261 26.15-58.261 58.261s26.15 58.261 58.261 58.261 58.261-26.15 58.261-58.261-26.15-58.261-58.261-58.261zM587.593 208.815c-32.11 0-58.261 26.15-58.261 58.261s26.15 58.261 58.261 58.261c32.11 0 58.261-26.15 58.261-58.261 0.122-32.11-26.15-58.261-58.261-58.261z" />
<glyph unicode="&#xe908;" glyph-name="contact" horiz-adv-x="724" d="M552.199 165.88h-380.701v80.276h-162.984v106.669c0 73.343 40.746 135.495 101.804 166.633-29.069 24.326-47.314 60.207-47.314 100.101 0 72.978 61.058 132.333 136.104 132.333 57.531 0 107.156-34.786 126.86-85.141 23.231 6.325 49.625 6.325 72.856 0 19.582 50.72 69.329 85.871 126.981 85.871 75.045 0 136.104-59.72 136.104-133.063 0-40.016-18.244-75.897-47.071-100.101 60.815-31.137 101.561-93.412 101.561-166.633v-106.669h-164.2v-80.276zM226.231 219.397h271.234v53.152c0 69.451-48.044 123.454-115.427 132.82-13.014-1.946-26.515-1.946-39.53-0.122-67.748-9.73-116.278-63.491-116.278-132.82v-53.031zM550.982 299.673h111.899v53.152c0 76.627-59.599 134.401-137.928 134.401v0c-12.285 0.122-24.083 1.46-34.786 4.014-7.784-20.555-20.677-38.8-36.975-53.152 52.301-27.367 89.155-78.816 97.79-138.415zM63.247 299.673h110.561c8.636 59.599 45.733 110.683 98.033 138.171-16.42 14.352-29.191 32.475-37.097 53.152-10.825-2.554-22.258-4.014-34.421-4.014 0 0-0.122 0-0.122 0v0c-78.208 0-136.955-57.531-136.955-134.158v-53.152zM362.335 618.099c-45.003 0-81.613-36.002-81.613-80.276 0-38.192 27.367-70.302 63.856-78.329 5.473 0.487 9.487 0.851 16.785 0.973v0h3.649c5.352-0.122 10.582-0.365 15.812-0.851 36.246 8.149 63.369 40.138 63.369 78.329-0.122 44.152-36.732 80.154-81.857 80.154zM498.317 544.391c7.784-2.433 16.542-3.649 26.029-3.649 47.192 0 83.073 34.664 83.073 78.816 0 43.908-36.611 79.546-81.613 79.546-36.611 0-67.991-23.718-78.086-57.044 29.313-23.231 48.652-58.261 50.598-97.669zM199.108 698.375c-45.854 0-81.613-34.664-81.613-78.816s35.881-78.816 81.613-78.816c10.339 0 19.461 1.216 27.367 3.649 1.946 39.286 21.285 74.194 50.598 97.547-10.217 33.083-41.476 56.436-77.965 56.436z" />
<glyph unicode="&#xe909;" glyph-name="expand" d="M409.6 492.8l-281.6 281.6v-198.4h-64v320h320v-64h-211.2l281.6-288zM569.6 544l281.6 288h-211.2v64h320v-320h-64v204.8l-281.6-288zM454.4 352l-281.6-288h211.2v-64h-320v320h64v-204.8l281.6 288zM614.4 403.2l281.6-288v204.8h64v-320h-320v64h211.2l-281.6 288z" />
<glyph unicode="&#xe90a;" glyph-name="explore" horiz-adv-x="724" d="M558.158 165.15c-90.736 0-164.565 73.829-164.565 164.565 0 4.014 0.122 8.028 0.487 11.92h-60.815c0.243-3.892 0.487-7.906 0.487-11.92 0-90.736-73.829-164.565-164.565-164.565s-164.687 73.829-164.687 164.687c0 4.014 0.122 8.028 0.487 11.92h-0.487v23.839l128.441 365.254h168.214l8.149-89.763h108.615l8.149 89.763h168.214l128.441-365.254-0.487-23.839c0.243-3.892 0.487-7.906 0.487-11.92 0.122-90.857-73.708-164.687-164.565-164.687zM558.158 434.56c-57.774 0-104.723-46.949-104.723-104.723s46.949-104.723 104.723-104.723 104.723 46.949 104.723 104.723-46.949 104.723-104.723 104.723zM169.065 434.56c-57.774 0-104.723-46.949-104.723-104.723s46.949-104.723 104.723-104.723 104.723 46.949 104.723 104.723-46.949 104.723-104.723 104.723zM331.076 401.598h65.072l16.298 179.525h-97.669l16.298-179.525zM480.802 671.008l-18.853-207.743c27.123 19.582 60.328 31.137 96.331 31.137 21.042 0 41.232-4.014 59.842-11.19l-66.045 187.796h-71.275zM169.065 494.402c35.881 0 69.207-11.555 96.331-31.137l-18.853 207.743h-71.153l-66.045-187.796c18.488 7.176 38.678 11.19 59.72 11.19z" />
<glyph unicode="&#xe90b;" glyph-name="filter" d="M640-64h-256v473.6l-377.6 486.4h1017.6l-384-486.4v-473.6zM448 0h128v448l300.8 384h-729.6l300.8-384v-448z" />
<glyph unicode="&#xe90c;" glyph-name="goback" d="M1024-64h-640v384h64v-320h512v896h-512v-320h-64v384h640v-1024zM601.6 224l-57.6 57.6 128 128h-614.4v76.8h614.4l-128 128 57.6 57.6 217.6-224-217.6-224z" />
<glyph unicode="&#xe90d;" glyph-name="goforward" d="M0 960h640v-384h-64v320h-512v-896h512v320h64v-384h-640v1024zM204.8 448l224 224 57.6-57.6-128-128h614.4v-76.8h-620.8l128-128-57.6-57.6-217.6 224z" />
<glyph unicode="&#xe90e;" glyph-name="learn" horiz-adv-x="1105" d="M550.4 486.4l550.4 183.467-550.4 183.467-541.867-183.467v-469.333h76.8v439.467l465.067-153.6zM550.4 772.267l298.667-98.133-298.667-98.133-298.667 98.133 298.667 98.133zM554.667 418.133l-290.133 93.867-89.6-341.333 375.467-136.533 375.467 132.267-89.6 345.6-281.6-93.867zM550.4 123.733l-281.6 102.4 46.933 187.733 234.667-76.8 226.133 76.8 51.2-192-277.333-98.133z" />
<glyph unicode="&#xe90f;" glyph-name="next" d="M684.8 806.4l-44.8-38.4 256-256h-832v-64h832l-256-256 44.8-44.8 339.2 332.8z" />
<glyph unicode="&#xe910;" glyph-name="print" d="M1024 704h-192v256h-640v-256h-192v-576h192v-192h640v192h192v576zM256 896h512v-192h-512v192zM768 0h-512v320h512v-320zM960 192h-128v128h64v64h-768v-64h64v-128h-128v448h896v-448zM768 512h64v-64h-64v64z" />
<glyph unicode="&#xe911;" glyph-name="removehighlight" d="M640 640h320v-64h-320v64zM640 448h320v-64h-320v64zM64 256h896v-64h-896v64zM64 64h896v-64h-896v64zM121.6 320l198.4 198.4 198.4-198.4 57.6 57.6-192 198.4 192 198.4-57.6 57.6-198.4-192-198.4 192-57.6-57.6 198.4-198.4-198.4-198.4z" />
<glyph unicode="&#xe912;" glyph-name="search" horiz-adv-x="1105" d="M1066.667-4.267l-302.933 302.933c55.467 68.267 89.6 157.867 89.6 256 0 221.867-183.467 405.333-405.333 405.333s-405.333-183.467-405.333-405.333 183.467-405.333 405.333-405.333c98.133 0 183.467 34.133 256 89.6l302.933-302.933 59.733 59.733zM128 554.667c0 174.933 145.067 320 320 320s320-145.067 320-320-145.067-320-320-320-320 145.067-320 320z" />
<glyph unicode="&#xe913;" glyph-name="Caution" horiz-adv-x="724" d="M365.984 741.188l-310.764-544.293h622.014l-311.25 544.293zM392.134 313.538c0-14.352-11.555-25.907-25.907-25.907v0c-14.352 0-25.907 11.555-25.907 25.907v0c0 14.352 11.555 25.907 25.907 25.907 14.231 0 25.907-11.555 25.907-25.907v0zM340.198 378.245v168.579h51.814v-168.457h-51.814z" />
<glyph unicode="&#xe914;" glyph-name="clearall1" horiz-adv-x="724" d="M361.97 810.031c-199.108 0-361.97-162.862-361.97-361.97s162.862-361.97 361.97-361.97 361.97 162.862 361.97 361.97-162.862 361.97-361.97 361.97zM533.954 318.282l-42.205-42.205-129.779 129.657-129.657-129.657-42.205 42.205 129.779 129.779-129.779 129.657 42.205 42.205 129.779-129.779 129.779 129.779 42.205-42.205-129.779-129.657 129.657-129.779z" />
<glyph unicode="&#xe915;" glyph-name="Deprecated" horiz-adv-x="724" d="M361.97 761.622l-321.102-321.224 321.224-321.224 321.224 321.224-321.346 321.224zM450.273 314.268l-88.181 88.181-88.181-88.181-37.948 37.948 88.181 88.181-88.181 88.181 37.827 37.827 88.181-88.181 88.181 88.181 37.827-37.827-88.181-88.181 88.181-88.181-37.705-37.948z" />
<glyph unicode="&#xe916;" glyph-name="Note" horiz-adv-x="724" d="M407.338 553.392l-201.784-202.027v-58.99h60.45l201.419 200.932zM490.654 516.538l30.043 29.921-60.328 60.085-29.799-29.921zM362.335 787.894c-186.58 0-337.766-151.186-337.766-337.766s151.186-337.766 337.766-337.766 337.766 151.186 337.766 337.766-151.186 337.766-337.766 337.766zM279.505 260.751h-106.791v104.237l287.532 288.019 106.912-105.939-287.654-286.316z" />
<glyph unicode="&#xe917;" glyph-name="Tip" horiz-adv-x="724" d="M323.413 293.47c0-21.285 17.271-38.678 38.678-38.678s38.678 17.271 38.678 38.678v19.339h-77.235v-19.339zM364.646 641.087h-2.554c-63.856 0-115.913-51.936-115.913-115.913 0-31.989 12.649-61.666 35.637-83.56 24.691-23.596 39.53-56.193 41.354-90.249h77.6c1.824 33.813 16.785 66.045 42.57 91.344 23.11 22.745 35.394 53.395 34.421 86.114-1.824 60.572-52.544 110.926-113.116 112.264zM362.335 787.894c-186.58 0-337.766-151.186-337.766-337.766s151.186-337.766 337.766-337.766 337.766 151.186 337.766 337.766-151.186 337.766-337.766 337.766zM470.463 415.221c-20.191-19.826-31.259-45.003-31.259-71.032v-50.72c0-42.57-34.664-77.235-77.235-77.235s-77.235 34.664-77.235 77.235v50.841c0 26.15-10.825 51.449-29.678 69.451-30.651 29.313-47.557 68.964-47.557 111.534 0 85.141 69.329 154.47 154.47 154.47h3.406c80.762-1.824 148.51-68.842 150.942-149.604 1.46-43.665-14.839-84.533-45.854-114.94z" />
<glyph unicode="&#xe918;" glyph-name="arrowup" horiz-adv-x="990" d="M493.227 700.587l-450.56-447.147 56.32-58.027 394.24 394.24 389.12-394.24 58.027 58.027z" />
<glyph unicode="&#xe919;" glyph-name="back2" d="M0 480l339.2-332.8 44.8 44.8-256 256h832v64h-832l256 256-44.8 38.4z" />
<glyph unicode="&#xe91a;" glyph-name="next2" d="M684.8 806.4l-44.8-38.4 256-256h-832v-64h832l-256-256 44.8-44.8 339.2 332.8z" />
<glyph unicode="&#xe91b;" glyph-name="Important1" horiz-adv-x="791" d="M396.929 843.281c-215.578 0-393.988-178.41-393.988-393.988s178.41-393.988 393.988-393.988c215.578 0 393.988 178.409 393.988 393.988s-178.41 393.988-393.988 393.988zM352.327 664.871h89.204v-282.48h-89.204v282.48zM396.929 233.715c-22.302 0-44.602 22.3-44.602 44.603 0 22.3 22.3 44.6 44.602 44.6 22.3 0 44.602-22.299 44.602-44.6 0-22.303-22.302-44.603-44.602-44.603z" />
<glyph unicode="&#xe91c;" glyph-name="viewall" d="M582.4 435.2c0-49.485-40.115-89.6-89.6-89.6s-89.6 40.115-89.6 89.6c0 49.485 40.115 89.6 89.6 89.6s89.6-40.115 89.6-89.6zM499.2 204.8c-185.6 0-332.8 204.8-339.2 217.6l-6.4 12.8 6.4 12.8c6.4 12.8 153.6 236.8 339.2 236.8s332.8-230.4 339.2-236.8l6.4-12.8-6.4-12.8c-6.4-6.4-153.6-217.6-339.2-217.6zM211.2 435.2c32-38.4 153.6-179.2 288-179.2s256 140.8 288 179.2c-32 51.2-153.6 204.8-288 204.8s-256-153.6-288-204.8z" />
</font>
</defs>
</svg>
